osu file format v14

[General]
AudioFilename: this is a mp3.mp3
AudioLeadIn: 1500
PreviewTime: 86339
Countdown: 0
SampleSet: Soft
StackLeniency: 0.7
Mode: 0
LetterboxInBreaks: 0
WidescreenStoryboard: 0

[Editor]
Bookmarks: 38058
DistanceSpacing: 1.2
BeatDivisor: 4
GridSize: 4
TimelineZoom: 2.799999

[Metadata]
Title:Blue on Blue
TitleUnicode:Blue on Blue
Artist:Rita
ArtistUnicode:Rita
Creator:Kin
Version:Easy
Source:サツコイ~悠久なる恋の歌~
Tags:理多 Satsukoi ~Yuukyuu Naru Koi no Uta~ KIZAWA studio ALcot honey comb
BeatmapID:634127
BeatmapSetID:202925

[Difficulty]
HPDrainRate:3
CircleSize:3
OverallDifficulty:3
ApproachRate:3
SliderMultiplier:0.8
SliderTickRate:1

[Events]
//Background and Video events
Video,0,"Hey I'm a video.avi",0,0
0,0,"Satsukoi182.jpg",0,0
//Break Periods
//Storyboard Layer 0 (Background)
//Storyboard Layer 1 (Fail)
//Storyboard Layer 2 (Pass)
//Storyboard Layer 3 (Foreground)
//Storyboard Sound Samples

[TimingPoints]
562,705.882352941176,4,2,2,20,1,0
2264,681.044267877412,4,2,2,20,1,0
20993,750,4,2,2,20,1,0
21368,774.193548387097,4,2,2,20,1,0
24464,468.75,4,2,2,40,1,0
24933,468.75,4,2,3,80,1,1
25050,-100,4,2,1,80,0,0
27042,-100,4,2,1,60,0,0
27511,-100,4,2,1,80,0,0
31026,-100,4,2,1,60,0,0
31143,-100,4,2,1,80,0,0
34542,-100,4,2,1,60,0,0
34893,-100,4,2,1,80,0,0
39933,-100,4,2,1,30,0,0
46026,-100,4,2,1,40,0,0
53643,-100,4,2,1,30,0,0
61026,-100,4,2,1,40,0,0
61143,-100,4,2,1,30,0,0
68058,-100,4,2,1,50,0,0
69933,-100,4,3,1,50,0,0
83058,-100,4,3,1,30,0,0
83761,-100,4,2,1,50,0,0
84933,-100,4,2,1,80,0,0
86808,-100,4,1,0,80,0,1
86925,-100,4,2,1,100,0,1
88917,-100,4,2,1,60,0,1
89268,-100,4,2,1,100,0,1
92901,-100,4,2,1,60,0,1
93018,-100,4,2,1,100,0,1
96417,-100,4,2,1,60,0,1
96768,-100,4,2,1,100,0,1
101808,-100,4,2,1,100,0,0
103917,-100,4,2,1,60,0,0
104268,-100,4,2,1,100,0,0
109308,-100,4,1,0,100,0,1
109425,-100,4,2,1,100,0,1
111417,-100,4,2,1,60,0,1
111768,-100,4,2,1,100,0,1
118917,-100,4,2,1,60,0,1
119268,-100,4,2,1,100,0,1
120558,-100,4,2,1,100,0,0
122433,-100,4,2,1,80,0,0
124776,-100,4,2,1,60,0,0
126183,-100,4,2,1,40,0,0
128058,-100,4,2,1,20,0,0
129815,-100,4,2,0,5,0,0

[Colours]
Combo1 : 198,99,0
Combo2 : 0,106,213
Combo3 : 126,0,253
Combo4 : 190,125,255

[HitObjects]
92,128,562,6,0,B|109:138|122:154|122:154|143:158|161:168,1,80,2|2,0:0|0:0,0:0:0:0:
272,252,2264,6,0,B|316:285|381:272|411:219|401:170,1,200,2|2,0:0|0:0,0:0:0:0:
316,48,4988,6,0,B|272:15|207:28|177:81|187:130,1,200,0|2,0:0|0:0,0:0:0:0:
272,252,7712,6,0,B|316:272|348:236|400:260,2,120,0|2|0,0:0|0:0|0:0,0:0:0:0:
188,204,10436,2,0,L|180:152,1,40,0|2,0:0|0:0,0:0:0:0:
268,124,11458,2,0,L|274:84,2,40,2|0|2,0:0|0:0|0:0,0:0:0:0:
256,268,13160,6,0,B|217:309|153:312|109:274|97:226,1,200,0|2,0:0|0:0,0:0:0:0:
132,88,15884,5,2,0:0:0:0:
220,52,16565,2,0,B|258:38|258:38|295:49|295:49|340:36,1,120,0|2,0:0|0:0,0:0:0:0:
428,20,18268,2,0,B|462:19|490:41|500:71,1,80,2|0,0:0|0:0,0:0:0:0:
504,152,19630,2,0,L|508:240,2,80,0|0|2,0:0|0:0|0:0,0:0:0:0:
256,192,21755,12,4,24933,1:0:0:0:
132,108,26808,6,0,B|176:116|220:108,1,80,2|8,0:0|0:1,0:0:0:0:
300,76,27745,1,0,0:0:0:0:
352,156,28214,1,10,0:0:0:0:
352,156,28683,6,0,B|390:199|388:262|353:303,1,160,2|2,0:0|0:0,0:0:0:0:
264,344,30089,1,10,0:0:0:0:
168,360,30558,2,0,B|134:368|101:366|71:356,2,80,2|2|0,0:0|0:3|0:0,0:0:0:0:
204,272,31964,1,10,0:0:0:0:
236,179,32433,6,0,B|283:148|341:150|385:177,1,160,2|2,0:0|0:0,0:0:0:0:
436,264,33839,1,10,0:0:0:0:
384,344,34308,2,0,B|355:357|324:359|295:352,1,80,2|8,0:0|0:1,0:0:0:0:
212,332,35245,2,0,L|116:312,1,80,2|10,0:0|0:0,0:0:0:0:
44,284,36183,6,0,B|2:241|8:171|56:136,1,160,2|0,0:0|0:0,0:0:0:0:
112,216,37589,2,0,B|155:227|198:226|238:216,2,120,8|4|4,0:0|1:2|1:2,0:0:0:0:
12,52,39933,6,0,B|76:52|120:100|120:100|148:72|156:32|156:32|200:72|268:72,1,320,2|0,0:0|0:0,0:0:0:0:
500,332,43683,6,0,B|436:332|392:284|392:284|364:312|356:352|356:352|312:312|244:312,1,320,2|0,0:0|0:0,0:0:0:0:
156,340,46026,1,2,0:3:0:0:
156,340,47433,6,0,B|113:295|113:218|156:192|198:166|198:89|156:45,1,320,2|0,0:0|0:0,0:0:0:0:
356,340,51183,6,0,B|398:295|398:218|356:192|313:166|313:89|356:45,1,320,2|0,0:0|0:0,0:0:0:0:
448,12,53526,6,0,B|468:68|428:112|428:112|432:128|440:140,2,120,2|0|0,0:3|1:0|1:0,0:0:0:0:
256,44,55870,1,0,0:0:0:0:
84,132,56808,2,0,B|50:98|41:50|56:9,2,120,0|2|0,0:0|0:0|0:0,0:0:0:0:
160,192,58683,5,0,1:0:0:0:
308,68,59620,2,0,B|348:40|401:46|436:81|444:122,1,160,,,0:0:0:0:
448,204,61026,6,0,B|436:284|436:284|380:340,1,160,2|0,0:3|1:0,0:0:0:0:
288,368,62433,2,0,B|248:350|204:352|168:368,2,120,0|2|0,1:0|0:0|0:0,0:0:0:0:
380,340,64308,6,0,B|443:314|470:239|438:174|383:149,1,240,2|0,0:0|0:0,0:0:0:0:
288,152,66183,1,0,1:0:0:0:
184,248,67589,5,0,1:0:0:0:
184,248,68058,2,0,B|180:208|180:208|160:172|160:172|162:156|162:156|144:124|156:80,1,160,0|0,1:0|1:0,0:0:0:0:
248,108,69464,1,8,3:2:0:0:
248,108,69933,6,0,B|280:128|324:128|360:104|360:104|400:112|400:112|440:80|492:96,1,240,0|8,1:0|0:2,0:0:0:0:
468,188,71808,2,0,B|496:248|461:321|388:338|336:306,1,240,0|8,1:0|0:2,0:0:0:0:
312,212,73683,6,0,B|268:220|240:256|236:296|236:296|196:288|196:288|156:308|116:288,1,240,0|8,1:0|0:2,0:0:0:0:
40,240,75558,2,0,B|-9:191|6:103|84:70|142:99,1,240,0|8,1:0|0:2,0:0:0:0:
216,148,77433,6,0,B|252:168|296:168|332:152|332:152|368:168|368:168|412:152|448:168,1,240,0|8,1:0|0:2,0:0:0:0:
412,256,79308,2,0,B|408:296|376:328|332:336|332:336|297:321|297:321|260:332|216:324,1,240,0|8,1:0|0:2,0:0:0:0:
148,260,81183,6,0,B|152:220|184:188|228:180|228:180|262:194|262:194|300:184|344:192,1,240,0|8,1:0|0:2,0:0:0:0:
424,244,83058,2,0,B|449:207|444:160|417:129,2,120,8|0|8,2:1|1:0|3:2,0:0:0:0:
348,300,84933,6,0,B|316:300|288:316|288:316|256:300|224:300,1,120,4|4,1:2|1:2,0:0:0:0:
340,84,86808,6,0,B|385:89|419:126|422:173|401:207,1,160,4|0,0:0|0:0,0:0:0:0:
324,264,88214,1,8,0:0:0:0:
324,264,88683,2,0,L|236:260,2,80,0|8|0,1:0|0:1|0:0,0:0:0:0:
420,272,90089,1,8,0:0:0:0:
420,272,90558,6,0,B|465:263|493:219|484:172|453:145,1,160,0|0,1:0|0:0,0:0:0:0:
372,96,91964,1,8,0:0:0:0:
304,160,92433,2,0,L|212:164,2,80,0|8|0,1:0|0:1|0:0,0:0:0:0:
396,184,93839,1,8,0:0:0:0:
396,184,94308,6,0,B|433:214|442:266|418:308|381:327,1,160,0|0,1:0|0:0,0:0:0:0:
296,328,95714,1,8,0:0:0:0:
248,244,96183,2,0,L|164:248,2,80,0|8|0,1:0|0:1|0:0,0:0:0:0:
292,160,97589,1,8,0:0:0:0:
292,160,98058,6,0,B|318:117|369:99|417:112|447:143,1,160,0|0,1:0|0:0,0:0:0:0:
376,208,99464,1,8,0:0:0:0:
464,248,99933,2,0,B|450:277|425:297|396:304,1,80,0|2,1:0|0:3,0:0:0:0:
311,291,100870,2,0,B|270:251|211:245|164:268,1,160,0|4,0:0|1:2,0:0:0:0:
88,328,102276,6,0,B|55:292|53:238|82:197|122:182,1,160,8|8,0:0|0:0,0:0:0:0:
200,160,103683,2,0,L|196:76,2,80,0|8|0,1:0|0:1|0:0,0:0:0:0:
256,236,105089,1,8,0:0:0:0:
256,236,105558,6,0,B|303:269|363:267|407:237,1,160,0|0,1:0|0:0,0:0:0:0:
436,144,106964,1,8,0:0:0:0:
436,144,107433,2,0,B|439:83|377:47|377:47|308:66|240:40,1,240,,,0:0:0:0:
164,24,109308,6,0,B|118:19|77:51|69:98|87:134,1,160,4|2,0:0|0:0,0:0:0:0:
144,208,110714,1,10,0:0:0:0:
144,208,111183,2,0,L|136:304,2,80,0|8|0,1:0|0:1|0:0,0:0:0:0:
216,148,112589,1,10,0:0:0:0:
280,220,113058,6,0,B|332:249|393:245|439:216,1,160,2|2,0:0|0:0,0:0:0:0:
468,132,114464,1,10,0:0:0:0:
420,48,114933,2,0,B|453:30|491:33|520:52,2,80,2|2|0,0:0|0:3|0:0,0:0:0:0:
368,128,116339,1,10,0:0:0:0:
368,128,116808,6,0,L|208:120,1,160,2|2,0:0|0:0,0:0:0:0:
140,184,118214,1,10,0:0:0:0:
76,112,118683,2,0,B|58:82|61:46|80:20,2,80,2|8|0,0:0|0:1|0:0,0:0:0:0:
160,68,120089,1,10,0:0:0:0:
228,136,120558,6,0,B|283:161|343:157|392:132,1,160,2|0,0:0|1:0,0:0:0:0:
452,68,121964,2,0,B|490:104|489:164|452:200,2,120,8|4|4,0:0|1:2|1:2,0:0:0:0:
192,192,124776,5,4,1:2:0:0:
256,192,125011,12,0,129815,0:0:0:0:
